阿里云资源论坛

 找回密码
 立即注册
搜索
热搜: 阿里云资源
开启左侧

[BT下载]西伯利亚 Siberia.2018.1080p.BluRay.x264.DTS-HD.MA.5.1-FGT 8.9GB

[复制链接]





译  名 西伯利亚
片  名 Siberia
年  代 2018
产  地 美国
类  别 爱情/犯罪/惊悚
语  言 英语/俄语
上映日期 2018-07-13(美国)
西西论坛 http://www.xixi16.com/
片  长 104分钟
导  演 Matthew M. Ross
主  演 基努·里维斯 Keanu Reeves
      维罗尼卡·费瑞尔 Veronica Ferres
      帕沙·D.林奇尼科夫 Pasha D. Lychnikoff
      达伦·罗斯 Darren Ross
      詹姆斯·亚历山大 James Alexander
      安娜·乌拉鲁 Ana Ularu
      阿莱克斯·潘诺维奇 Aleks Paunovic
      莫利·林沃德 Molly Ringwald
      纳扎利·德姆克维奇 Nazariy Demkowicz
      布拉德利·索茨基 Bradley Sawatzky
      尤金·里皮斯基 Eugene Lipinski
      维塔利·马卡罗夫 Vitali Makarov


简  介


  故事讲述美国钻石商卢卡斯(基努饰)去西伯利亚做生意时,与咖啡馆店主卡佳(安娜·乌拉鲁饰)坠入情网,然而事态却步入危险。




Video
ID : 1
Format : AVC
Format/Info : Advanced Video Codec
Format profile : Hig4.1
Format settings : CABAC / 5 Ref Frames
Format settings, CABAC : Yes
Format settings, ReFrames : 5 frames
Codec ID : V_MPEG4/ISO/AVC
Duration : 1 h 44 min
Bit rate : 8 951 kb/s
Width : 1 920 pixels
Height : 808 pixels
Display aspect ratio : 2.40:1
Frame rate mode : Constant
Frame rate : 23.976 (24000/1001) FPS
Color space : YUV
Chroma subsampling : 4:2:0
Bit depth : 8 bits
Scan type : Progressive
Bits/(Pixel*Frame) : 0.241
Stream size : 6.54 GiB (73%)
Title : Siberia.2018.1080p.BluRay.x264.DTS-HD.MA.5.1-FGT
Writing library : x264 core 157 r2932 303c484
Encoding settings : cabac=1 / ref=5 / deblock=1:-3:-3 / analyse=0x3:0x113 / me=umh / subme=8 / psy=1 / psy_rd=1.00:0.00 / mixed_ref=1 / me_range=16 / chroma_me=1 / trellis=1 / 8x8dct=1 / cqm=0 / deadzone=21,11 / fast_pskip=1 / chroma_qp_offset=-2 / threads=24 / lookahead_threads=4 / sliced_threads=0 / nr=0 / decimate=1 / interlaced=0 / bluray_compat=0 / constrained_intra=0 / bframes=3 / b_pyramid=2 / b_adapt=1 / b_bias=0 / direct=3 / weightb=1 / open_gop=0 / weightp=2 / keyint=250 / keyint_min=23 / scenecut=40 / intra_refresh=0 / rc_lookahead=50 / rc=2pass / mbtree=1 / bitrate=8951 / ratetol=1.0 / qcomp=0.60 / qpmin=0 / qpmax=69 / qpstep=4 / cplxblur=20.0 / qblur=0.5 / ip_ratio=1.40 / aq=1:1.00
Language : English
Default : Yes
Forced : No

Audio
ID : 2
Format : DTS
Format/Info : Digital Theater Systems
Format profile : MA / Core
Codec ID : A_DTS
Duration : 1 h 44 min
Bit rate mode : Variable / Constant
Bit rate : 3 202 kb/s / 1 509 kb/s
Channel(s) : 6 channels
Channel positions : Front: L C R, Side: L R, LFE
Sampling rate : 48.0 kHz
Frame rate : 93.750 FPS (512 SPF)
Bit depth : 24 bits
Compression mode : Lossless / Lossy
Stream size : 2.34 GiB (26%)
Title : Siberia.2018.1080p.BluRay.x264.DTS-HD.MA.5.1-FGT
Language : English
Default : Yes
Forced : No

Text #1
ID : 3
Format : UTF-8
Codec ID : S_TEXT/UTF8
Codec ID/Info : UTF-8 Plain Text
Duration : 1 h 32 min
Bit rate : 26 b/s
Count of elements : 606
Stream size : 18.3 KiB (0%)
Title : English-SRT
Language : English
Default : Yes
Forced : No

Text #2
ID : 4
Format : PGS
Muxing mode : zlib
Codec ID : S_HDMV/PGS
Codec ID/Info : Picture based subtitle format used on BDs/HD-DVDs
Duration : 1 h 37 min
Bit rate : 21.0 kb/s
Count of elements : 1614
Stream size : 14.6 MiB (0%)
Title : English-PGS
Language : English
Default : No
Forced : No

Text #3
ID : 5
Format : PGS
Muxing mode : zlib
Codec ID : S_HDMV/PGS
Codec ID/Info : Picture based subtitle format used on BDs/HD-DVDs
Duration : 1 h 32 min
Bit rate : 22.7 kb/s
Count of elements : 1696
Stream size : 15.1 MiB (0%)
Title : Spanish-PGS
Language : Spanish
Default : No
Forced : No

Menu
00:00:00.000 : en:Chapter 01
00:09:22.937 : en:Chapter 02
00:17:40.350 : en:Chapter 03
00:22:02.237 : en:Chapter 04
00:29:52.499 : en:Chapter 05
00:38:31.225 : en:Chapter 06
00:44:18.739 : en:Chapter 07
00:51:32.380 : en:Chapter 08
00:57:34.409 : en:Chapter 09
01:04:05.716 : en:Chapter 10
01:13:01.543 : en:Chapter 11
01:18:49.558 : en:Chapter 12
01:23:58.616 : en:Chapter 13
01:28:55.288 : en:Chapter 14
01:32:42.306 : en:Chapter 15
01:36:17.313 : en:Chapter 16





Siberia.2018.1080p.BluRay.x264.DTS-HD.MA.5.1-FGT[BT天堂 www.btbt4.com].torrent (89.5 KB)
回复

使用道具 举报

阿里云资源论坛 ( 闽ICP备16005822号-1 )

本网站所有资源来自网络,如无意中侵犯了您的权益,请发邮件至 [email protected],立即清除相关链接

GMT+8, 2018-9-16 18:10 , Processed in 0.065578 second(s), 25 queries .

Powered by Discuz! X3.2

© 2001-2013 Comsenz Inc.

快速回复 返回顶部 返回列表